<?xml version="1.0" standalone="no"?>
<!DOCTYPE svg PUBLIC "-//W3C//DTD SVG 1.1//EN" "http://www.w3.org/Graphics/SVG/1.1/DTD/svg11.dtd" >
<svg xmlns="http://www.w3.org/2000/svg">
<metadata>
This is a custom SVG webfont generated by Font Squirrel.
Designer    : Ray Larabie
Foundry     : Ray Larabie
Foundry URL : httpwwwlarabiefontscom
</metadata>
<defs>
<font id="webfontYcKkdutD" horiz-adv-x="302" >
<font-face units-per-em="1000" ascent="850" descent="-150" />
<missing-glyph horiz-adv-x="136" />
<glyph unicode=" "  horiz-adv-x="136" />
<glyph unicode="&#x09;" horiz-adv-x="136" />
<glyph unicode="&#xa0;" horiz-adv-x="136" />
<glyph unicode="!" horiz-adv-x="167" d="M39 89h90v-89h-90v89zM129 448l-23 -271h-45l-22 268v442h90v-439z" />
<glyph unicode="&#x22;" horiz-adv-x="189" d="M155 887h76v-88l-21 -134h-34l-21 134v88zM31 887h75v-88l-21 -134h-33l-21 134v88z" />
<glyph unicode="#" horiz-adv-x="408" d="M145 511h91l26 92h-93zM54 663h71l52 198h61l-52 -198h91l52 198h59l-52 -198h75l-15 -60h-75l-25 -92h76l-17 -59h-74l-55 -197h-59l54 197h-93l-53 -197h-59l53 197h-71l15 59h71l26 92h-71z" />
<glyph unicode="$" horiz-adv-x="342" d="M113 627q0 -33 35 -86v255q-35 -8 -35 -49v-120zM224 242q0 46 -35 105v-256q35 9 35 49v102zM148 1q-124 15 -124 194v110h89v-165q0 -41 35 -49v313q-63 55 -93.5 116t-30.5 115v57q0 179 124 194v49h41v-49q124 -13 124 -194v-81h-89v136q0 40 -35 49v-309 q5 -7 11.5 -13.5t12.5 -13.5q100 -106 100 -187v-78q0 -181 -124 -194v-56h-41v56z" />
<glyph unicode="%" horiz-adv-x="553" d="M458 296q0 37 -32 37q-31 0 -31 -37v-198q0 -37 31 -37q32 0 32 37v198zM519 135q0 -135 -93 -135q-94 0 -94 135v123q0 136 94 136q93 0 93 -136v-123zM152 791q0 36 -32 36q-31 0 -31 -36v-199q0 -36 31 -36q32 0 32 36v199zM213 630q0 -135 -93 -135q-94 0 -94 135 v122q0 136 94 136q93 0 93 -136v-122zM489 887l-373 -887h-55l374 887h54z" />
<glyph unicode="&#x26;" horiz-adv-x="386" d="M153 567q43 89 43 162v18q0 52 -33 52t-33 -52v-19q0 -34 6 -73.5t17 -87.5zM140 376q-36 -50 -36 -146v-68q0 -73 55 -73q51 0 63 22zM271 238l24 68h74l-60 -208q9 -21 36 -21q12 0 24 4v-81h-45q-49 0 -62 37q-34 -37 -103 -37q-143 0 -143 195v36q0 66 20 124.5 t65 115.5q-60 160 -60 248q0 168 122 168q112 0 112 -168q0 -106 -81 -247z" />
<glyph unicode="'" horiz-adv-x="104" d="M31 887h75v-88l-21 -134h-33l-21 134v88z" />
<glyph unicode="(" horiz-adv-x="211" d="M78 89q0 -124 95 -124v-54q-149 0 -149 195v675q0 195 149 195v-53q-95 0 -95 -124v-710z" />
<glyph unicode=")" horiz-adv-x="211" d="M119 799q0 124 -95 124v53q148 0 148 -195v-675q0 -195 -148 -195v54q95 0 95 124v710z" />
<glyph unicode="*" horiz-adv-x="349" d="M269 570l-64 -108l122 28v-99l-122 27l64 -106l-94 -31l-13 123l-82 -92l-58 79l114 49l-114 50l58 80l82 -94l13 125z" />
<glyph unicode="+" horiz-adv-x="297" d="M184 583v-95h94v-71h-94v-95h-71v95h-95v71h95v95h71z" />
<glyph unicode="," horiz-adv-x="125" d="M20 106h80v-88q0 -42 -16.5 -61.5t-50.5 -19.5v39q36 0 36 38h-49v92z" />
<glyph unicode="-" horiz-adv-x="184" d="M18 488h148v-71h-148v71z" />
<glyph unicode="." horiz-adv-x="125" d="M20 106h80v-106h-80v106z" />
<glyph unicode="/" horiz-adv-x="233" d="M227 887l-170 -887h-55l171 887h54z" />
<glyph unicode="0" horiz-adv-x="337" d="M213 747q0 52 -44 52q-45 0 -45 -52v-607q0 -51 45 -51q44 0 44 51v607zM302 195q0 -195 -133 -195q-134 0 -134 195v497q0 195 134 195q133 0 133 -195v-497z" />
<glyph unicode="1" horiz-adv-x="190" d="M17 799q48 0 48 67v21h89v-887h-89v710h-48v89z" />
<glyph unicode="2" horiz-adv-x="337" d="M35 169q0 116 88 246q45 66 67.5 126.5t22.5 117.5v88q0 52 -44 52q-45 0 -45 -52v-136h-89v81q0 195 134 195q133 0 133 -195v-49q0 -121 -88 -251q-45 -66 -67 -124t-22 -112v-67h177v-89h-267v169z" />
<glyph unicode="3" horiz-adv-x="337" d="M213 747q0 52 -44 52q-45 0 -45 -52v-136h-89v81q0 195 134 195q133 0 133 -195v-89q0 -120 -55 -151q55 -31 55 -150v-107q0 -195 -133 -195q-134 0 -134 195v110h89v-165q0 -51 45 -51q44 0 44 51v217q0 24 -10.5 37.5t-32.5 13.5h-29v89h33q39 0 39 51v199z" />
<glyph unicode="4" horiz-adv-x="335" d="M92 266h98v371l-25 -107zM8 271l182 616h83v-621h45v-89h-45v-177h-83v177h-182v94z" />
<glyph unicode="5" horiz-adv-x="339" d="M35 887h267v-88h-178v-267q21 18 47 18q133 0 133 -195v-160q0 -195 -133 -195t-133 195v110h88v-165q0 -51 45 -51q44 0 44 51v270q0 59 -53 59q-44 0 -51 -40h-76v458z" />
<glyph unicode="6" horiz-adv-x="337" d="M213 407q0 52 -44 52t-45 -48v-271q0 -51 45 -51q44 0 44 51v267zM302 611h-89v136q0 52 -44 52q-45 0 -45 -52v-216q20 17 45 17q133 0 133 -195v-158q0 -195 -133 -195q-134 0 -134 195v497q0 195 134 195q133 0 133 -195v-81z" />
<glyph unicode="7" horiz-adv-x="292" d="M12 887h267v-98q-73 -165 -101 -362.5t-29 -426.5h-88q0 224 34 424t107 375h-190v88z" />
<glyph unicode="8" horiz-adv-x="337" d="M213 747q0 52 -44 52q-45 0 -45 -52v-199q0 -24 11.5 -37.5t34.5 -13.5q43 0 43 51v199zM213 357q0 24 -10.5 37.5t-32.5 13.5q-46 0 -46 -51v-217q0 -51 45 -51q44 0 44 51v217zM302 603q0 -120 -55 -151q55 -31 55 -150v-107q0 -195 -133 -195q-134 0 -134 195v107 q0 119 55 150q-55 31 -55 151v89q0 195 134 195q133 0 133 -195v-89z" />
<glyph unicode="9" horiz-adv-x="337" d="M124 480q0 -52 45 -52q42 0 44 48v271q0 52 -44 52q-45 0 -45 -52v-267zM35 276h89v-136q0 -51 45 -51q44 0 44 51v216q-20 -17 -44 -17q-134 0 -134 196v157q0 195 134 195q133 0 133 -195v-497q0 -195 -133 -195q-134 0 -134 195v81z" />
<glyph unicode=":" horiz-adv-x="125" d="M20 410h80v-106h-80v106zM20 106h80v-106h-80v106z" />
<glyph unicode=";" horiz-adv-x="125" d="M20 410h80v-106h-80v106zM20 106h80v-88q0 -42 -16.5 -61.5t-50.5 -19.5v39q36 0 36 38h-49v92z" />
<glyph unicode="&#x3c;" horiz-adv-x="301" d="M282 294l-264 114v88l264 113v-50l-250 -104l250 -111v-50z" />
<glyph unicode="=" horiz-adv-x="264" d="M18 541h219v-62h-219v62zM18 390h219v-62h-219v62z" />
<glyph unicode="&#x3e;" horiz-adv-x="301" d="M18 609l264 -114v-88l-264 -113v50l249 104l-249 111v50z" />
<glyph unicode="?" horiz-adv-x="342" d="M102 89h90v-89h-90v89zM192 177h-90v140q0 115 54 180q27 32 42 75t15 100v75q0 52 -44 52q-45 0 -45 -52v-136h-89v81q0 195 134 195q133 0 133 -195v-34q0 -121 -55 -185q-55 -65 -55 -168v-128z" />
<glyph unicode="@" horiz-adv-x="475" d="M261 416q-19 -10 -34 -21.5t-15 -41.5v-48q0 -29 22 -29q27 0 27 29v111zM162 358q0 25 11.5 44t27 33t32.5 24.5t28 18.5v93q0 28 -23 28q-22 0 -22 -28v-80h-49v59q0 101 71 101q73 0 73 -101v-246q0 -27 39 -27q40 0 40 27v336q0 104 -155 104q-150 0 -150 -104v-396 q0 -98 111 -104h222v-48h-204q-182 0 -182 124v403q0 180 204 180q205 0 205 -180v-297q0 -97 -89 -97q-44 0 -66 27q-15 -27 -54 -27q-70 0 -70 101v32z" />
<glyph unicode="A" horiz-adv-x="325" d="M118 228h88l-30 250l-14 157l-13 -156zM0 0l118 887h89l118 -887h-90l-17 133h-113l-15 -133h-90z" />
<glyph unicode="B" horiz-adv-x="337" d="M213 747q0 52 -44 52h-45v-302h46q43 0 43 51v199zM213 357q0 24 -10.5 37.5t-32.5 13.5h-46v-319h45q44 0 44 51v217zM302 603q0 -120 -64 -151q64 -31 64 -150v-107q0 -195 -133 -195h-134v887h134q133 0 133 -195v-89z" />
<glyph unicode="C" horiz-adv-x="328" d="M213 305h84v-110q0 -195 -128 -195q-134 0 -134 195v497q0 195 134 195q128 0 128 -195v-81h-84v136q0 52 -44 52q-45 0 -45 -52v-607q0 -51 45 -51q44 0 44 51v165z" />
<glyph unicode="D" horiz-adv-x="337" d="M213 747q0 52 -44 52h-45v-710h45q44 0 44 51v607zM302 195q0 -195 -133 -195h-134v887h134q133 0 133 -195v-497z" />
<glyph unicode="E" horiz-adv-x="283" d="M124 89h137v-89h-226v887h226v-88h-137v-302h78v-89h-78v-319z" />
<glyph unicode="F" horiz-adv-x="277" d="M124 0h-89v887h226v-88h-137v-302h78v-89h-78v-408z" />
<glyph unicode="G" horiz-adv-x="334" d="M170 408h135v-408l-43 60q-26 -60 -93 -60q-134 0 -134 195v497q0 195 135 195q136 0 136 -195v-81h-85v136q0 52 -51 52q-46 0 -46 -52v-607q0 -51 45 -51q51 0 51 51v181h-50v87z" />
<glyph unicode="H" horiz-adv-x="337" d="M124 497h89v390h89v-887h-89v408h-89v-408h-89v887h89v-390z" />
<glyph unicode="I" horiz-adv-x="160" d="M35 0v887h89v-887h-89z" />
<glyph unicode="J" horiz-adv-x="210" d="M91 887h89v-692q0 -195 -133 -195h-25v89h25q44 0 44 51v747z" />
<glyph unicode="K" horiz-adv-x="359" d="M35 0v887h89v-405l24 79l107 326h93l-148 -432l157 -455h-94l-115 349l-24 79v-428h-89z" />
<glyph unicode="L" horiz-adv-x="273" d="M124 89h137v-89h-226v887h89v-798z" />
<glyph unicode="M" horiz-adv-x="479" d="M35 0v887h130l59 -478l14 -157l14 156l59 479h133v-887h-80v694l-11 -106l-78 -588h-73l-78 596l-9 97v-693h-80z" />
<glyph unicode="N" horiz-adv-x="366" d="M131 521l-16 119v-640h-80v887h107l91 -505l18 -135v640h79v-887h-106z" />
<glyph unicode="O" horiz-adv-x="337" d="M213 747q0 52 -44 52q-45 0 -45 -52v-607q0 -51 45 -51q44 0 44 51v607zM302 195q0 -195 -133 -195q-134 0 -134 195v497q0 195 134 195q133 0 133 -195v-497z" />
<glyph unicode="P" horiz-adv-x="342" d="M173 532q58 0 58 60v147q0 60 -59 60h-48v-267h49zM124 0h-89v887h137q147 0 147 -204v-35q0 -204 -146 -204h-49v-444z" />
<glyph unicode="Q" horiz-adv-x="337" d="M302 195q0 -175 -107 -193v-8q0 -25 10 -35.5t31 -10.5q34 0 66 20v-63q-41 -18 -74 -18q-43 0 -65.5 27.5t-23.5 87.5q-104 21 -104 193v497q0 195 134 195q133 0 133 -195v-497zM213 747q0 52 -44 52q-45 0 -45 -52v-607q0 -51 45 -51q44 0 44 51v607z" />
<glyph unicode="R" horiz-adv-x="338" d="M173 497q58 0 58 60v182q0 60 -59 60h-48v-302h49zM124 0h-89v887h137q147 0 147 -186v-98q0 -122 -68 -175l66 -428h-90l-56 408h-47v-408z" />
<glyph unicode="S" horiz-adv-x="324" d="M200 747q0 52 -38 52t-38 -52v-120q0 -58 82 -167q82 -107 82 -187v-78q0 -195 -126 -195q-127 0 -127 195v110h89v-165q0 -51 38 -51t38 51v102q0 80 -83 187q-82 106 -82 206v57q0 195 127 195q126 0 126 -195v-81h-88v136z" />
<glyph unicode="T" horiz-adv-x="273" d="M3 887h266v-88h-88v-799h-89v799h-89v88z" />
<glyph unicode="U" horiz-adv-x="337" d="M213 887h89v-692q0 -195 -133 -195q-134 0 -134 195v692h89v-747q0 -51 45 -51q44 0 44 51v747z" />
<glyph unicode="V" horiz-adv-x="325" d="M325 887l-118 -887h-89l-118 887h90l59 -478l13 -157l13 156l60 479h90z" />
<glyph unicode="W" horiz-adv-x="542" d="M542 887l-116 -887h-82l-73 566l-71 -566h-82l-118 887h90l59 -478l14 -157l13 156l59 479h72l59 -478l14 -157l14 156l58 479h90z" />
<glyph unicode="X" horiz-adv-x="338" d="M317 887l-102 -409l123 -478h-92l-76 342l-77 -342h-92l122 478l-101 409h91l57 -274l55 274h92z" />
<glyph unicode="Y" horiz-adv-x="322" d="M116 0v379l-116 508h91l53 -274l17 -119l16 119l53 274h92l-117 -508v-379h-89z" />
<glyph unicode="Z" horiz-adv-x="298" d="M26 887h256v-108l-177 -690h177v-89h-265v100l184 699h-175v88z" />
<glyph unicode="[" horiz-adv-x="211" d="M173 -35v-55h-149v1066h149v-53h-95v-958h95z" />
<glyph unicode="\" horiz-adv-x="240" d="M60 887l172 -887h-56l-169 887h53z" />
<glyph unicode="]" horiz-adv-x="211" d="M24 923v53h148v-1065h-148v54l95 -2v960h-95z" />
<glyph unicode="^" horiz-adv-x="339" d="M12 623l114 264h88l113 -264h-50l-104 250l-111 -250h-50z" />
<glyph unicode="_" horiz-adv-x="354" d="M0 -89h355v-88h-355v88z" />
<glyph unicode="`" horiz-adv-x="175" d="M112 984l53 -57h-45l-104 57h96z" />
<glyph unicode="a" horiz-adv-x="301" d="M189 296l-29 -16q-14 -7 -24.5 -17.5t-17 -26t-6.5 -39.5v-73q0 -45 36 -45q41 0 41 45v172zM35 206q0 39 18 68.5t43 52t51 38t42 26.5v144q0 44 -36 44q-33 0 -33 -44v-124h-77v91q0 157 110 157q112 0 112 -157v-502h-76v29q-20 -29 -63 -29q-91 0 -91 156v50z" />
<glyph unicode="b" d="M190 535q0 44 -39 44t-39 -44v-411q0 -45 39 -45t39 45v411zM35 887h77v-255q13 27 63 27q91 0 91 -157v-346q0 -156 -100 -156q-61 0 -84 50l-12 -50h-35v887z" />
<glyph unicode="c" horiz-adv-x="297" d="M190 535q0 44 -40 44q-38 0 -38 -44v-411q0 -45 38 -45q40 0 40 45v127h76v-95q0 -156 -116 -156q-115 0 -115 156v346q0 157 115 157q116 0 116 -157v-91h-76v124z" />
<glyph unicode="d" d="M112 124q0 -45 39 -45t39 45v411q0 44 -39 44t-39 -44v-411zM266 0h-76v30q-33 -30 -68 -30q-87 0 -87 156v346q0 157 87 157q54 0 68 -27v255h76v-887z" />
<glyph unicode="e" d="M112 393h78v142q0 44 -40 44q-38 0 -38 -44v-142zM112 124q0 -45 38 -45q40 0 40 45v127h76v-95q0 -156 -116 -156q-115 0 -115 156v346q0 157 115 157q116 0 116 -157v-187h-154v-191z" />
<glyph unicode="f" horiz-adv-x="156" d="M0 659h29v72q0 156 127 156v-80q-51 0 -51 -44v-104h35v-80h-35v-579h-76v579h-29v80z" />
<glyph unicode="g" d="M112 140q0 -45 39 -45q34 0 39 38v402q0 45 -39 45t-39 -45v-395zM150 -78q40 0 40 46v74q-14 -26 -68 -26q-87 0 -87 156v330q0 157 87 157q35 0 68 -30v30h76v-659q0 -156 -116 -156q-103 0 -113 121h75q1 -43 38 -43z" />
<glyph unicode="h" d="M190 535q0 44 -39 44t-39 -44v-535h-77v887h77v-255q13 27 63 27q91 0 91 -157v-502h-76v535z" />
<glyph unicode="i" horiz-adv-x="148" d="M112 766h-77v121h77v-121zM112 0h-77v659h77v-659z" />
<glyph unicode="j" horiz-adv-x="154" d="M119 766h-77v121h77v-121zM-18 -77q60 0 60 59v677h77v-651q0 -164 -137 -164v79z" />
<glyph unicode="k" horiz-adv-x="297" d="M35 887h77v-532l100 304h80l-115 -333l114 -326h-81l-98 302v-302h-77v887z" />
<glyph unicode="l" horiz-adv-x="129" d="M26 887h76v-887h-76v887z" />
<glyph unicode="m" horiz-adv-x="455" d="M343 535q0 44 -39 44q-38 0 -38 -43v-536h-76v535q0 44 -39 44t-39 -44v-535h-77v659h77v-27q13 27 63 27q47 0 73 -42q22 42 80 42q91 0 91 -157v-502h-76v535z" />
<glyph unicode="n" d="M190 535q0 44 -39 44t-39 -44v-535h-77v659h77v-27q13 27 63 27q91 0 91 -157v-502h-76v535z" />
<glyph unicode="o" d="M190 535q0 44 -40 44q-38 0 -38 -44v-411q0 -45 38 -45q40 0 40 45v411zM266 156q0 -156 -116 -156q-115 0 -115 156v346q0 157 115 157q116 0 116 -157v-346z" />
<glyph unicode="p" d="M35 659h77v-30q31 30 68 30q86 0 86 -157v-346q0 -156 -86 -156q-55 0 -68 27v-183h-77v815zM190 535q0 45 -39 45t-39 -45v-411q0 -44 39 -44t39 44v411z" />
<glyph unicode="q" d="M266 -156h-76v183q-14 -27 -68 -27q-87 0 -87 156v346q0 157 87 157q35 0 68 -30v30h76v-815zM112 124q0 -44 39 -44t39 44v411q0 45 -39 45t-39 -45v-411z" />
<glyph unicode="r" horiz-adv-x="193" d="M112 632q13 27 67 27v-97q-11 17 -28 17q-39 0 -39 -44v-535h-77v659h77v-27z" />
<glyph unicode="s" horiz-adv-x="272" d="M165 538q0 45 -31 45t-31 -45v-61q0 -50 71 -139q72 -90 72 -173q0 -165 -110 -165q-108 0 -108 169v28h75v-76q0 -46 33 -46q34 0 34 46v61q0 54 -71 131t-71 178q0 168 106 168q108 0 108 -168v-56h-77v103z" />
<glyph unicode="t" horiz-adv-x="174" d="M6 659h31v228h76v-228h36v-80h-36v-455q0 -44 41 -44v-80q-117 0 -117 156v423h-31v80z" />
<glyph unicode="u" d="M112 124q0 -44 39 -44t39 44v535h76v-659h-76v27q-14 -27 -64 -27q-91 0 -91 156v503h77v-535z" />
<glyph unicode="v" horiz-adv-x="266" d="M144 365l37 294h80l-88 -659h-80l-87 659h78l37 -293l12 -140z" />
<glyph unicode="w" horiz-adv-x="420" d="M298 365l37 294h80l-88 -659h-69l-48 363l-48 -363h-69l-87 659h78l37 -293l12 -140l11 139l37 294h57l37 -293l12 -140z" />
<glyph unicode="x" horiz-adv-x="263" d="M257 0h-81l-44 201l-45 -201h-81l83 325l-82 334h81l28 -142l16 -69l42 211h82l-83 -334z" />
<glyph unicode="y" horiz-adv-x="273" d="M21 -77q67 4 79 77l-91 659h79l36 -293l12 -140l12 139l36 294h80l-88 -659q-11 -81 -51.5 -118.5t-103.5 -37.5v79z" />
<glyph unicode="z" horiz-adv-x="268" d="M34 659h203v-94l-131 -486h130v-79h-205v87l136 492h-133v80z" />
<glyph unicode="{" horiz-adv-x="288" d="M166 89q0 -124 96 -124v-54q-149 0 -149 195v218l-99 120l99 123v214q0 195 149 195v-53q-96 0 -96 -124v-248l-87 -107l87 -109v-246z" />
<glyph unicode="|" horiz-adv-x="100" d="M79 887v-887h-56v887h56z" />
<glyph unicode="}" horiz-adv-x="288" d="M109 799q0 124 -96 124v53q149 0 149 -195v-218l99 -119l-99 -123v-215q0 -195 -149 -195v54q96 0 96 124v247l87 108l-87 108v247z" />
<glyph unicode="&#xa1;" horiz-adv-x="156" d="M121 642h-90v89h90v-89zM31 283l22 270h46l22 -267v-442h-90v439z" />
<glyph unicode="&#xa2;" horiz-adv-x="282" d="M102 124q0 -40 29 -45v499q-29 -6 -29 -43v-411zM149 759v-101q107 -5 107 -156v-91h-76v124q0 39 -31 43v-499q31 4 31 45v127h76v-95q0 -151 -107 -156v-89h-18v89q-105 6 -105 156v346q0 150 105 156v101h18z" />
<glyph unicode="&#xa3;" horiz-adv-x="254" d="M48 89v615q0 183 161 183v-80q-85 0 -85 -71v-77h81v-80h-81v-490h116v-89h-226v89h34z" />
<glyph unicode="&#xa5;" horiz-adv-x="322" d="M116 0v379l-116 508h91l53 -274l17 -119l16 119l53 274h92l-117 -508v-379h-89zM32.4541 408.297h261.024v-45.5312h-261.024v45.5312zM32.4541 297.406h261.024v-45.5312h-261.024v45.5312z" />
<glyph unicode="&#xa6;" horiz-adv-x="100" d="M79 0h-56v296h55zM78 558h-55v329h55v-329z" />
<glyph unicode="&#xa7;" horiz-adv-x="278" d="M172 472q-2 39 -31 39q-35 0 -35 -39v-57q0 -40 33 -40t33 40v57zM172 781q0 37 -33 37t-33 -37v-62q0 -21 15.5 -48t35 -52t37.5 -45.5t22 -28.5q6 -11 10.5 -21t8.5 -22t6 -27.5t2 -37.5h-1q-5 -119 -98 -120q9 -8 25.5 -24.5t32.5 -39t28 -50t13 -57.5 q0 -146 -104 -146t-104 146v27h71v-67q0 -39 33 -39t33 39v13q0 61 -69 142q-68 80 -68 157q0 72 19.5 108.5t64.5 40.5q-84 82 -84 159v14q0 146 104 146t104 -146v-50h-71v91z" />
<glyph unicode="&#xa8;" horiz-adv-x="255" d="M27 984h53v-57h-53v57zM177 927v57h55v-57h-55z" />
<glyph unicode="&#xa9;" horiz-adv-x="723" d="M388 557q0 37 -34 37q-32 0 -32 -37v-228q0 -38 32 -38q34 0 34 38v41h66v-13q0 -133 -100 -133q-97 0 -97 133v172q0 133 97 133q100 0 100 -133v-22h-66v50zM72 448q0 -59 23 -111.5t62 -91.5t91 -61.5t111 -22.5q58 0 110.5 22.5t92 61.5t62.5 91.5t23 111.5 q0 58 -23 110.5t-62.5 91.5t-92 62t-110.5 23q-59 0 -111 -23t-91 -62t-62 -91.5t-23 -110.5zM18 448q0 70 26.5 133.5t73 110.5t108.5 75t133 28t134 -28t110.5 -75t75 -110.5t27.5 -133.5q0 -71 -27.5 -133t-75 -108.5t-110.5 -73.5t-134 -27t-133 27t-108.5 73.5 t-73 108.5t-26.5 133z" />
<glyph unicode="&#xaa;" horiz-adv-x="277" d="M122 543q17 0 17 20v90q-13 -8 -22 -16.5t-9 -30.5v-43q0 -20 14 -20zM57 611q0 20 7.5 36.5t19.5 29.5t26.5 23t28.5 18v79q0 20 -14 20q-13 0 -13 -20v-75h-52v58q0 93 65 93q66 0 66 -93v-292h-52v8q-11 -8 -28 -8q-54 0 -54 94v29z" />
<glyph unicode="&#xab;" horiz-adv-x="617" d="M537 39h-82l-170 247l170 246h82l-144 -246zM324 39h-79l-173 247l173 246h80l-142 -246z" />
<glyph unicode="&#xac;" horiz-adv-x="184" d="M18 488h148v-71h-148v71z" />
<glyph unicode="&#xad;" horiz-adv-x="184" d="M18 488h148v-71h-148v71z" />
<glyph unicode="&#xae;" horiz-adv-x="528" d="M213 488h-51v302h96q57 0 82 -20t25 -62q0 -65 -51 -75l46 -145h-52l-40 139h-55v-139zM269 657q42 0 42 51q0 52 -42 52h-56v-103h56zM53 637q0 -43 16.5 -80.5t45 -66t66.5 -45t80 -16.5t79.5 16.5t66 45t45 66t16.5 80.5q0 42 -16.5 79.5t-45 66t-66 45t-79.5 16.5 t-80 -16.5t-66.5 -45t-45 -66t-16.5 -79.5zM14 637q0 51 19.5 96.5t53 79.5t78.5 54t96 20t96.5 -20t79.5 -54t54 -79.5t20 -96.5t-20 -96t-54 -78.5t-79.5 -53t-96.5 -19.5t-96 19.5t-78.5 53t-53 78.5t-19.5 96z" />
<glyph unicode="&#xaf;" horiz-adv-x="222" d="M35 984h160v-57h-160v57z" />
<glyph unicode="&#xb0;" horiz-adv-x="406" d="M73 708q0 -27 11 -50.5t29 -41t42 -28t50 -10.5q27 0 50.5 10.5t41 28t28 41t10.5 50.5q0 26 -10.5 50t-28 42t-41 29t-50.5 11q-26 0 -50 -11t-42 -29t-29 -42t-11 -50zM27 708q0 37 13.5 70t37.5 57.5t56.5 39t70.5 14.5q37 0 70 -14.5t57.5 -39t39 -57.5t14.5 -70 t-14.5 -69.5t-39 -56.5t-57.5 -38t-70 -14q-38 0 -70.5 14t-56.5 38t-37.5 56.5t-13.5 69.5z" />
<glyph unicode="&#xb1;" horiz-adv-x="297" d="M29 299h242v-73h-242v73zM184 583v-95h94v-71h-94v-95h-71v95h-95v71h95v95h71z" />
<glyph unicode="&#xb2;" horiz-adv-x="267" d="M37 434q0 71 56 157q26 39 40 74t16 71v56q0 19 -18 19t-18 -19v-97h-76v61q0 131 94 131t94 -131v-30q0 -76 -58 -160q-53 -77 -53 -141v-30h111v-77h-188v116z" />
<glyph unicode="&#xb3;" horiz-adv-x="275" d="M152 792q0 19 -16 19t-16 -19v-97h-78v61q0 131 94 131q95 0 95 -131v-55q0 -68 -48 -93q48 -29 48 -91v-67q0 -132 -95 -132q-94 0 -94 132v78h78v-113q0 -20 16 -20t16 20v135q0 20 -14 20h-30v77h32q12 0 12 21v124z" />
<glyph unicode="&#xb4;" horiz-adv-x="175" d="M162 984l-104 -57h-46l53 57h97z" />
<glyph unicode="&#xb5;" horiz-adv-x="282" d="M26 659h76v-535q0 -44 39 -44t39 44v535h76v-541q2 -38 25 -38v-80h-27q-37 0 -60 44q-29 -44 -78 -44q-12 0 -14 1v-158h-76v816z" />
<glyph unicode="&#x3bc;" horiz-adv-x="282" d="M26 659h76v-535q0 -44 39 -44t39 44v535h76v-541q2 -38 25 -38v-80h-27q-37 0 -60 44q-29 -44 -78 -44q-12 0 -14 1v-158h-76v816z" />
<glyph unicode="&#xb6;" horiz-adv-x="265" d="M250 887v-887h-56v555h-55v-555h-56v555h-69v332h236z" />
<glyph unicode="&#xb7;" horiz-adv-x="125" d="M20 469h80v-106h-80v106z" />
<glyph unicode="&#xb8;" horiz-adv-x="195" d="M103 -2q0 -15 7.5 -25.5t16.5 -21t16.5 -23t7.5 -31.5q0 -53 -57 -53q-54 0 -54 49v6h39q-1 -3 -1 -10q0 -20 16 -20q19 0 19 23q0 17 -7.5 28.5t-16.5 22t-16.5 22.5t-7.5 31v11h38v-9z" />
<glyph unicode="&#xb9;" horiz-adv-x="173" d="M29 833q31 0 31 30v24h76v-569h-76v438h-31v77z" />
<glyph unicode="&#xba;" horiz-adv-x="282" d="M180 763q0 44 -40 44q-38 0 -38 -44v-333q0 -45 38 -45q40 0 40 45v333zM256 462q0 -156 -116 -156q-114 0 -114 156v269q0 156 114 156q116 0 116 -156v-269z" />
<glyph unicode="&#xbb;" horiz-adv-x="617" d="M75 532h82l170 -246l-170 -247h-82l145 247zM287 532h80l173 -246l-173 -247h-80l142 247z" />
<glyph unicode="&#xbc;" horiz-adv-x="620" d="M481 186v149l-50 -149h50zM29 833q31 0 31 30v24h76v-569h-76v438h-31v77zM366 181l118 388h71v-383h28v-76h-28v-110h-74v110h-115v71zM508 887l-373 -887h-55l374 887h54z" />
<glyph unicode="&#xbd;" horiz-adv-x="640" d="M37 833q31 0 31 30v24h76v-569h-76v438h-31v77zM408 115q0 72 57 158q26 38 40.5 74t14.5 71v56q0 18 -18 18q-17 0 -17 -18v-97h-77v61q0 131 94 131q95 0 95 -131v-30q0 -76 -58 -161q-53 -77 -53 -141v-29h111v-77h-189v115zM512 887l-372 -887h-56l374 887h54z" />
<glyph unicode="&#xbe;" horiz-adv-x="667" d="M526 186v149l-50 -149h50zM410 181l118 388h71v-383h29v-76h-29v-110h-73v110h-116v71zM170 792q0 19 -16 19t-16 -19v-97h-78v61q0 131 94 131t94 -131v-55q0 -67 -47 -93q47 -29 47 -91v-67q0 -132 -94 -132t-94 132v78h78v-113q0 -20 16 -20t16 20v135q0 20 -15 20 h-30v77h32q13 0 13 21v124zM571 887l-372 -887h-56l374 887h54z" />
<glyph unicode="&#xbf;" horiz-adv-x="342" d="M237 642h-89v89h89v-89zM148 553h89v-139q0 -116 -54 -180t-57 -175v-76q0 -51 45 -51q44 0 44 51v137h89v-81q0 -195 -133 -195t-133 195v34q0 119 54 184q26 32 41 74.5t15 94.5v127z" />
<glyph unicode="&#xc0;" horiz-adv-x="325" d="M118 228h88l-30 250l-14 157l-13 -156zM0 0l118 887h89l118 -887h-90l-17 133h-113l-15 -133h-90zM145 984l53 -57h-45l-104 57h96z" />
<glyph unicode="&#xc1;" horiz-adv-x="325" d="M118 228h88l-30 250l-14 157l-13 -156zM0 0l118 887h89l118 -887h-90l-17 133h-113l-15 -133h-90zM271 984l-104 -57h-46l53 57h97z" />
<glyph unicode="&#xc2;" horiz-adv-x="325" d="M118 228h88l-30 250l-14 157l-13 -156zM0 0l118 887h89l118 -887h-90l-17 133h-113l-15 -133h-90zM138 984h51l80 -57h-80l-26 45l-25 -45h-81z" />
<glyph unicode="&#xc3;" horiz-adv-x="325" d="M118 228h88l-30 250l-14 157l-13 -156zM0 0l118 887h89l118 -887h-90l-17 133h-113l-15 -133h-90zM60 927q0 25 13.5 41t36.5 16q13 0 28 -3.5t29 -7.5l26 -7q13 -4 21 -4q10 0 14.5 6.5t5.5 15.5h33q0 -29 -13.5 -43t-33.5 -14q-13 0 -27 3l-29 8q-14 3 -26.5 6.5 t-21.5 3.5q-11 0 -17 -4.5t-7 -16.5h-32z" />
<glyph unicode="&#xc4;" horiz-adv-x="325" d="M118 228h88l-30 250l-14 157l-13 -156zM0 0l118 887h89l118 -887h-90l-17 133h-113l-15 -133h-90zM60 984h53v-57h-53v57zM210 927v57h55v-57h-55z" />
<glyph unicode="&#xc5;" horiz-adv-x="325" d="M118 228h88l-30 250l-14 157l-13 -156zM0 0l118 887h89l118 -887h-90l-17 133h-113l-15 -133h-90zM115 959q0 -19 14 -32.5t33 -13.5q18 0 32 13.5t14 32.5t-14 33t-32 14q-19 0 -33 -14t-14 -33zM99 959q0 26 18.5 45t44.5 19q25 0 44 -19t19 -45q0 -25 -19 -43.5 t-44 -18.5q-26 0 -44.5 18.5t-18.5 43.5z" />
<glyph unicode="&#xc6;" horiz-adv-x="417" d="M159 370h51v299l-17 -111zM210 0v281h-67l-51 -281h-90l161 887h227v-88h-92v-429h56v-89h-56v-192h92v-89h-180z" />
<glyph unicode="&#xc7;" horiz-adv-x="328" d="M213 305h84v-110q0 -195 -128 -195q-134 0 -134 195v497q0 195 134 195q128 0 128 -195v-81h-84v136q0 52 -44 52q-45 0 -45 -52v-607q0 -51 45 -51q44 0 44 51v165zM182 -2q0 -15 7.5 -25.5t16.5 -21t16.5 -23t7.5 -31.5q0 -53 -57 -53q-54 0 -54 49v6h39q-1 -3 -1 -10 q0 -20 16 -20q19 0 19 23q0 17 -7.5 28.5t-16.5 22t-16.5 22.5t-7.5 31v11h38v-9z" />
<glyph unicode="&#xc8;" horiz-adv-x="283" d="M124 89h137v-89h-226v887h226v-88h-137v-302h78v-89h-78v-319zM134 984l53 -57h-45l-104 57h96z" />
<glyph unicode="&#xc9;" horiz-adv-x="283" d="M124 89h137v-89h-226v887h226v-88h-137v-302h78v-89h-78v-319zM231 984l-104 -57h-46l53 57h97z" />
<glyph unicode="&#xca;" horiz-adv-x="283" d="M124 89h137v-89h-226v887h226v-88h-137v-302h78v-89h-78v-319zM124 979h51l80 -57h-80l-26 45l-25 -45h-81z" />
<glyph unicode="&#xcb;" horiz-adv-x="283" d="M124 89h137v-89h-226v887h226v-88h-137v-302h78v-89h-78v-319zM46 984h53v-57h-53v57zM196 927v57h55v-57h-55z" />
<glyph unicode="&#xcc;" horiz-adv-x="160" d="M35 0v887h89v-887h-89zM72 984l53 -57h-45l-104 57h96z" />
<glyph unicode="&#xcd;" horiz-adv-x="160" d="M35 0v887h89v-887h-89zM184 984l-104 -57h-46l53 57h97z" />
<glyph unicode="&#xce;" horiz-adv-x="160" d="M35 0v887h89v-887h-89zM58 984h51l80 -57h-80l-26 45l-25 -45h-81z" />
<glyph unicode="&#xcf;" horiz-adv-x="160" d="M35 0v887h89v-887h-89zM-17 984h53v-57h-53v57zM133 927v57h55v-57h-55z" />
<glyph unicode="&#xd0;" horiz-adv-x="337" d="M7 488h148v-71h-148v71zM213 747q0 52 -44 52h-45v-710h45q44 0 44 51v607zM302 195q0 -195 -133 -195h-134v887h134q133 0 133 -195v-497z" />
<glyph unicode="&#xd1;" horiz-adv-x="366" d="M131 521l-16 119v-640h-80v887h107l91 -505l18 -135v640h79v-887h-106zM81 927q0 25 13.5 41t36.5 16q13 0 28 -3.5t29 -7.5l26 -7q13 -4 21 -4q10 0 14.5 6.5t5.5 15.5h33q0 -29 -13.5 -43t-33.5 -14q-13 0 -27 3l-29 8q-14 3 -26.5 6.5t-21.5 3.5q-11 0 -17 -4.5 t-7 -16.5h-32z" />
<glyph unicode="&#xd2;" horiz-adv-x="337" d="M213 747q0 52 -44 52q-45 0 -45 -52v-607q0 -51 45 -51q44 0 44 51v607zM302 195q0 -195 -133 -195q-134 0 -134 195v497q0 195 134 195q133 0 133 -195v-497zM140 984l53 -57h-45l-104 57h96z" />
<glyph unicode="&#xd3;" horiz-adv-x="337" d="M213 747q0 52 -44 52q-45 0 -45 -52v-607q0 -51 45 -51q44 0 44 51v607zM302 195q0 -195 -133 -195q-134 0 -134 195v497q0 195 134 195q133 0 133 -195v-497zM280 984l-104 -57h-46l53 57h97z" />
<glyph unicode="&#xd4;" horiz-adv-x="337" d="M213 747q0 52 -44 52q-45 0 -45 -52v-607q0 -51 45 -51q44 0 44 51v607zM302 195q0 -195 -133 -195q-134 0 -134 195v497q0 195 134 195q133 0 133 -195v-497zM142 984h51l80 -57h-80l-26 45l-25 -45h-81z" />
<glyph unicode="&#xd5;" horiz-adv-x="337" d="M213 747q0 52 -44 52q-45 0 -45 -52v-607q0 -51 45 -51q44 0 44 51v607zM302 195q0 -195 -133 -195q-134 0 -134 195v497q0 195 134 195q133 0 133 -195v-497zM67 927q0 25 13.5 41t36.5 16q13 0 28 -3.5t29 -7.5l26 -7q13 -4 21 -4q10 0 14.5 6.5t5.5 15.5h33 q0 -29 -13.5 -43t-33.5 -14q-13 0 -27 3l-29 8q-14 3 -26.5 6.5t-21.5 3.5q-11 0 -17 -4.5t-7 -16.5h-32z" />
<glyph unicode="&#xd6;" horiz-adv-x="337" d="M213 747q0 52 -44 52q-45 0 -45 -52v-607q0 -51 45 -51q44 0 44 51v607zM302 195q0 -195 -133 -195q-134 0 -134 195v497q0 195 134 195q133 0 133 -195v-497zM66 984h53v-57h-53v57zM216 927v57h55v-57h-55z" />
<glyph unicode="&#xd7;" horiz-adv-x="297" d="M266 519l-67 -68l66 -66l-50 -50l-66 66l-68 -67l-50 50l67 67l-67 68l50 50l68 -67l67 67z" />
<glyph unicode="&#xd8;" horiz-adv-x="337" d="M213 747q0 52 -44 52q-45 0 -45 -52v-607q0 -51 45 -51q44 0 44 51v607zM302 195q0 -195 -133 -195q-134 0 -134 195v497q0 195 134 195q133 0 133 -195v-497zM276 887l-170 -887h-55l171 887h54z" />
<glyph unicode="&#xd9;" horiz-adv-x="337" d="M213 887h89v-692q0 -195 -133 -195q-134 0 -134 195v692h89v-747q0 -51 45 -51q44 0 44 51v747zM142 984l53 -57h-45l-104 57h96z" />
<glyph unicode="&#xda;" horiz-adv-x="337" d="M213 887h89v-692q0 -195 -133 -195q-134 0 -134 195v692h89v-747q0 -51 45 -51q44 0 44 51v747zM254 984l-104 -57h-46l53 57h97z" />
<glyph unicode="&#xdb;" horiz-adv-x="337" d="M213 887h89v-692q0 -195 -133 -195q-134 0 -134 195v692h89v-747q0 -51 45 -51q44 0 44 51v747zM142 984h51l80 -57h-80l-26 45l-25 -45h-81z" />
<glyph unicode="&#xdc;" horiz-adv-x="337" d="M213 887h89v-692q0 -195 -133 -195q-134 0 -134 195v692h89v-747q0 -51 45 -51q44 0 44 51v747zM66 984h53v-57h-53v57zM216 927v57h55v-57h-55z" />
<glyph unicode="&#xdd;" horiz-adv-x="322" d="M116 0v379l-116 508h91l53 -274l17 -119l16 119l53 274h92l-117 -508v-379h-89zM234 984l-104 -57h-46l53 57h97z" />
<glyph unicode="&#xde;" horiz-adv-x="342" d="M173 305q58 0 58 60v146q0 60 -59 60h-48v-266h49zM35 887h89v-227h48q147 0 147 -204v-36q0 -204 -146 -204h-49v-216h-89v887z" />
<glyph unicode="&#xdf;" horiz-adv-x="314" d="M203 760q0 51 -44 51q-45 0 -45 -51v-760h-76v714q0 173 121 173q122 0 122 -173v-133q0 -97 -44 -129q44 -32 44 -128v-151q0 -173 -132 -173v77q54 0 54 51v236q0 50 -55 51v76q55 0 55 51v218z" />
<glyph unicode="&#xe0;" horiz-adv-x="301" d="M189 296l-29 -16q-14 -7 -24.5 -17.5t-17 -26t-6.5 -39.5v-73q0 -45 36 -45q41 0 41 45v172zM35 206q0 39 18 68.5t43 52t51 38t42 26.5v144q0 44 -36 44q-33 0 -33 -44v-124h-77v91q0 157 110 157q112 0 112 -157v-502h-76v29q-20 -29 -63 -29q-91 0 -91 156v50z M126 755l53 -57h-45l-104 57h96z" />
<glyph unicode="&#xe1;" horiz-adv-x="301" d="M189 296l-29 -16q-14 -7 -24.5 -17.5t-17 -26t-6.5 -39.5v-73q0 -45 36 -45q41 0 41 45v172zM35 206q0 39 18 68.5t43 52t51 38t42 26.5v144q0 44 -36 44q-33 0 -33 -44v-124h-77v91q0 157 110 157q112 0 112 -157v-502h-76v29q-20 -29 -63 -29q-91 0 -91 156v50z M262 755l-104 -57h-46l53 57h97z" />
<glyph unicode="&#xe2;" horiz-adv-x="301" d="M189 296l-29 -16q-14 -7 -24.5 -17.5t-17 -26t-6.5 -39.5v-73q0 -45 36 -45q41 0 41 45v172zM35 206q0 39 18 68.5t43 52t51 38t42 26.5v144q0 44 -36 44q-33 0 -33 -44v-124h-77v91q0 157 110 157q112 0 112 -157v-502h-76v29q-20 -29 -63 -29q-91 0 -91 156v50z M134 755h51l80 -57h-80l-26 45l-25 -45h-81z" />
<glyph unicode="&#xe3;" horiz-adv-x="301" d="M189 296l-29 -16q-14 -7 -24.5 -17.5t-17 -26t-6.5 -39.5v-73q0 -45 36 -45q41 0 41 45v172zM35 206q0 39 18 68.5t43 52t51 38t42 26.5v144q0 44 -36 44q-33 0 -33 -44v-124h-77v91q0 157 110 157q112 0 112 -157v-502h-76v29q-20 -29 -63 -29q-91 0 -91 156v50zM52 698 q0 25 13.5 41t36.5 16q13 0 28 -3.5t29 -7.5l26 -7q13 -4 21 -4q10 0 14.5 6.5t5.5 15.5h33q0 -29 -13.5 -43t-33.5 -14q-13 0 -27 3l-29 8q-14 3 -26.5 6.5t-21.5 3.5q-11 0 -17 -4.5t-7 -16.5h-32z" />
<glyph unicode="&#xe4;" horiz-adv-x="301" d="M189 296l-29 -16q-14 -7 -24.5 -17.5t-17 -26t-6.5 -39.5v-73q0 -45 36 -45q41 0 41 45v172zM35 206q0 39 18 68.5t43 52t51 38t42 26.5v144q0 44 -36 44q-33 0 -33 -44v-124h-77v91q0 157 110 157q112 0 112 -157v-502h-76v29q-20 -29 -63 -29q-91 0 -91 156v50zM48 755 h53v-57h-53v57zM198 698v57h55v-57h-55z" />
<glyph unicode="&#xe5;" horiz-adv-x="301" d="M189 296l-29 -16q-14 -7 -24.5 -17.5t-17 -26t-6.5 -39.5v-73q0 -45 36 -45q41 0 41 45v172zM35 206q0 39 18 68.5t43 52t51 38t42 26.5v144q0 44 -36 44q-33 0 -33 -44v-124h-77v91q0 157 110 157q112 0 112 -157v-502h-76v29q-20 -29 -63 -29q-91 0 -91 156v50z M105 730q0 -19 14 -32.5t33 -13.5q18 0 32 13.5t14 32.5t-14 33t-32 14q-19 0 -33 -14t-14 -33zM89 730q0 26 18.5 45t44.5 19q25 0 44 -19t19 -45q0 -25 -19 -43.5t-44 -18.5q-26 0 -44.5 18.5t-18.5 43.5z" />
<glyph unicode="&#xe6;" horiz-adv-x="455" d="M265 124q0 -45 38 -45q40 0 40 45v127h76v-95q0 -156 -110 -156q-52 0 -84 41q-29 -41 -76 -41q-114 0 -114 156v50q0 39 18 68.5t43 52t51 38t42 26.5v144q0 44 -36 44q-33 0 -33 -44v-124h-77v91q0 157 110 157q47 0 73 -39q28 39 77 39q116 0 116 -157v-187h-154v-191 zM189 296l-29 -16q-14 -7 -24.5 -17.5t-17 -26t-6.5 -39.5v-73q0 -45 36 -45q41 0 41 45v172zM265 393h78v142q0 44 -40 44q-38 0 -38 -44v-142z" />
<glyph unicode="&#xe7;" horiz-adv-x="297" d="M190 535q0 44 -40 44q-38 0 -38 -44v-411q0 -45 38 -45q40 0 40 45v127h76v-95q0 -156 -116 -156q-115 0 -115 156v346q0 157 115 157q116 0 116 -157v-91h-76v124zM170 -2q0 -15 7.5 -25.5t16.5 -21t16.5 -23t7.5 -31.5q0 -53 -57 -53q-54 0 -54 49v6h39q-1 -3 -1 -10 q0 -20 16 -20q19 0 19 23q0 17 -7.5 28.5t-16.5 22t-16.5 22.5t-7.5 31v11h38v-9z" />
<glyph unicode="&#xe8;" d="M112 393h78v142q0 44 -40 44q-38 0 -38 -44v-142zM112 124q0 -45 38 -45q40 0 40 45v127h76v-95q0 -156 -116 -156q-115 0 -115 156v346q0 157 115 157q116 0 116 -157v-187h-154v-191zM138 755l53 -57h-45l-104 57h96z" />
<glyph unicode="&#xe9;" d="M112 393h78v142q0 44 -40 44q-38 0 -38 -44v-142zM112 124q0 -45 38 -45q40 0 40 45v127h76v-95q0 -156 -116 -156q-115 0 -115 156v346q0 157 115 157q116 0 116 -157v-187h-154v-191zM257 755l-104 -57h-46l53 57h97z" />
<glyph unicode="&#xea;" d="M112 393h78v142q0 44 -40 44q-38 0 -38 -44v-142zM112 124q0 -45 38 -45q40 0 40 45v127h76v-95q0 -156 -116 -156q-115 0 -115 156v346q0 157 115 157q116 0 116 -157v-187h-154v-191zM125 755h51l80 -57h-80l-26 45l-25 -45h-81z" />
<glyph unicode="&#xeb;" d="M112 393h78v142q0 44 -40 44q-38 0 -38 -44v-142zM112 124q0 -45 38 -45q40 0 40 45v127h76v-95q0 -156 -116 -156q-115 0 -115 156v346q0 157 115 157q116 0 116 -157v-187h-154v-191zM49 755h53v-57h-53v57zM199 698v57h55v-57h-55z" />
<glyph unicode="&#xec;" horiz-adv-x="156" d="M119 0h-77v659h77v-659zM76 755l53 -57h-45l-104 57h96z" />
<glyph unicode="&#xed;" horiz-adv-x="156" d="M119 0h-77v659h77v-659zM195 755l-104 -57h-46l53 57h97z" />
<glyph unicode="&#xee;" horiz-adv-x="156" d="M119 0h-77v659h77v-659zM59 755h51l80 -57h-80l-26 45l-25 -45h-81z" />
<glyph unicode="&#xef;" horiz-adv-x="156" d="M119 0h-77v659h77v-659zM-17 755h53v-57h-53v57zM133 698v57h55v-57h-55z" />
<glyph unicode="&#xf0;" horiz-adv-x="337" d="M34 692q0 195 133 195q134 0 134 -195v-497q0 -195 -134 -195q-133 0 -133 195v158q0 195 133 195q25 0 45 -17v216q0 52 -45 52q-44 0 -44 -52v-136h-89v81zM123 140q0 -51 44 -51q45 0 45 51v271q-2 48 -45 48q-44 0 -44 -52v-267z" />
<glyph unicode="&#xf1;" d="M190 535q0 44 -39 44t-39 -44v-535h-77v659h77v-27q13 27 63 27q91 0 91 -157v-502h-76v535zM43 698q0 25 13.5 41t36.5 16q13 0 28 -3.5t29 -7.5l26 -7q13 -4 21 -4q10 0 14.5 6.5t5.5 15.5h33q0 -29 -13.5 -43t-33.5 -14q-13 0 -27 3l-29 8q-14 3 -26.5 6.5t-21.5 3.5 q-11 0 -17 -4.5t-7 -16.5h-32z" />
<glyph unicode="&#xf2;" d="M190 535q0 44 -40 44q-38 0 -38 -44v-411q0 -45 38 -45q40 0 40 45v411zM266 156q0 -156 -116 -156q-115 0 -115 156v346q0 157 115 157q116 0 116 -157v-346zM132 755l53 -57h-45l-104 57h96z" />
<glyph unicode="&#xf3;" d="M190 535q0 44 -40 44q-38 0 -38 -44v-411q0 -45 38 -45q40 0 40 45v411zM266 156q0 -156 -116 -156q-115 0 -115 156v346q0 157 115 157q116 0 116 -157v-346zM234 755l-104 -57h-46l53 57h97z" />
<glyph unicode="&#xf4;" d="M190 535q0 44 -40 44q-38 0 -38 -44v-411q0 -45 38 -45q40 0 40 45v411zM266 156q0 -156 -116 -156q-115 0 -115 156v346q0 157 115 157q116 0 116 -157v-346zM128 755h51l80 -57h-80l-26 45l-25 -45h-81z" />
<glyph unicode="&#xf5;" d="M190 535q0 44 -40 44q-38 0 -38 -44v-411q0 -45 38 -45q40 0 40 45v411zM266 156q0 -156 -116 -156q-115 0 -115 156v346q0 157 115 157q116 0 116 -157v-346zM51 698q0 25 13.5 41t36.5 16q13 0 28 -3.5t29 -7.5l26 -7q13 -4 21 -4q10 0 14.5 6.5t5.5 15.5h33 q0 -29 -13.5 -43t-33.5 -14q-13 0 -27 3l-29 8q-14 3 -26.5 6.5t-21.5 3.5q-11 0 -17 -4.5t-7 -16.5h-32z" />
<glyph unicode="&#xf6;" d="M190 535q0 44 -40 44q-38 0 -38 -44v-411q0 -45 38 -45q40 0 40 45v411zM266 156q0 -156 -116 -156q-115 0 -115 156v346q0 157 115 157q116 0 116 -157v-346zM49 755h53v-57h-53v57zM199 698v57h55v-57h-55z" />
<glyph unicode="&#xf7;" horiz-adv-x="337" d="M11 488h313v-71h-313v71zM123 658h80v-107h-80v107zM123 354h80v-107h-80v107z" />
<glyph unicode="&#xf8;" d="M190 535q0 44 -40 44q-38 0 -38 -44v-411q0 -45 38 -45q40 0 40 45v411zM266 156q0 -156 -116 -156q-115 0 -115 156v346q0 157 115 157q116 0 116 -157v-346zM233.851 659.728l-126.452 -659.728h-40.9111l127.196 659.728h40.167z" />
<glyph unicode="&#xf9;" d="M112 124q0 -44 39 -44t39 44v535h76v-659h-76v27q-14 -27 -64 -27q-91 0 -91 156v503h77v-535zM134 755l53 -57h-45l-104 57h96z" />
<glyph unicode="&#xfa;" d="M112 124q0 -44 39 -44t39 44v535h76v-659h-76v27q-14 -27 -64 -27q-91 0 -91 156v503h77v-535zM244 755l-104 -57h-46l53 57h97z" />
<glyph unicode="&#xfb;" d="M112 124q0 -44 39 -44t39 44v535h76v-659h-76v27q-14 -27 -64 -27q-91 0 -91 156v503h77v-535zM124 755h51l80 -57h-80l-26 45l-25 -45h-81z" />
<glyph unicode="&#xfc;" d="M112 124q0 -44 39 -44t39 44v535h76v-659h-76v27q-14 -27 -64 -27q-91 0 -91 156v503h77v-535zM48 755h53v-57h-53v57zM198 698v57h55v-57h-55z" />
<glyph unicode="&#xfd;" horiz-adv-x="273" d="M21 -77q67 4 79 77l-91 659h79l36 -293l12 -140l12 139l36 294h80l-88 -659q-11 -81 -51.5 -118.5t-103.5 -37.5v79zM226 755l-104 -57h-46l53 57h97z" />
<glyph unicode="&#xfe;" d="M190 535q0 44 -39 44t-39 -44v-411q0 -45 39 -45t39 45v411zM35 887h77v-255q13 27 63 27q91 0 91 -157v-346q0 -156 -100 -156q-35 0 -54 13v-169h-77v1043z" />
<glyph unicode="&#xff;" horiz-adv-x="273" d="M21 -77q67 4 79 77l-91 659h79l36 -293l12 -140l12 139l36 294h80l-88 -659q-11 -81 -51.5 -118.5t-103.5 -37.5v79zM35 755h53v-57h-53v57zM185 698v57h55v-57h-55z" />
<glyph unicode="&#x102;" horiz-adv-x="325" d="M118 228h88l-30 250l-14 157l-13 -156zM0 0l118 887h89l118 -887h-90l-17 133h-113l-15 -133h-90zM269 984q-26 -57 -108 -57q-94 0 -104 57h69q0 -45 36 -45q37 0 37 45h70z" />
<glyph unicode="&#x103;" horiz-adv-x="301" d="M189 296l-29 -16q-14 -7 -24.5 -17.5t-17 -26t-6.5 -39.5v-73q0 -45 36 -45q41 0 41 45v172zM35 206q0 39 18 68.5t43 52t51 38t42 26.5v144q0 44 -36 44q-33 0 -33 -44v-124h-77v91q0 157 110 157q112 0 112 -157v-502h-76v29q-20 -29 -63 -29q-91 0 -91 156v50z M261 755q-26 -57 -108 -57q-94 0 -104 57h69q0 -45 36 -45q37 0 37 45h70z" />
<glyph unicode="&#x104;" horiz-adv-x="325" d="M118 228h88l-30 250l-14 157l-13 -156zM0 0l118 887h89l118 -887h-90l-17 133h-113l-15 -133h-90zM265 7h38v-11q0 -20 -7.5 -32t-16.5 -22.5t-16.5 -21.5t-7.5 -28q0 -23 19 -23q16 0 16 22v8h38v-8q0 -47 -54 -47q-57 0 -57 53q0 18 7.5 30.5t16.5 23t16.5 21.5t7.5 26 v9z" />
<glyph unicode="&#x105;" horiz-adv-x="301" d="M189 296l-29 -16q-14 -7 -24.5 -17.5t-17 -26t-6.5 -39.5v-73q0 -45 36 -45q41 0 41 45v172zM35 206q0 39 18 68.5t43 52t51 38t42 26.5v144q0 44 -36 44q-33 0 -33 -44v-124h-77v91q0 157 110 157q112 0 112 -157v-502h-76v29q-20 -29 -63 -29q-91 0 -91 156v50zM212 7 h38v-11q0 -20 -7.5 -32t-16.5 -22.5t-16.5 -21.5t-7.5 -28q0 -23 19 -23q16 0 16 22v8h38v-8q0 -47 -54 -47q-57 0 -57 53q0 18 7.5 30.5t16.5 23t16.5 21.5t7.5 26v9z" />
<glyph unicode="&#x106;" horiz-adv-x="328" d="M213 305h84v-110q0 -195 -128 -195q-134 0 -134 195v497q0 195 134 195q128 0 128 -195v-81h-84v136q0 52 -44 52q-45 0 -45 -52v-607q0 -51 45 -51q44 0 44 51v165zM268 984l-104 -57h-46l53 57h97z" />
<glyph unicode="&#x107;" horiz-adv-x="297" d="M190 535q0 44 -40 44q-38 0 -38 -44v-411q0 -45 38 -45q40 0 40 45v127h76v-95q0 -156 -116 -156q-115 0 -115 156v346q0 157 115 157q116 0 116 -157v-91h-76v124zM245 755l-104 -57h-46l53 57h97z" />
<glyph unicode="&#x118;" horiz-adv-x="283" d="M124 89h137v-89h-226v887h226v-88h-137v-302h78v-89h-78v-319zM120 7h38v-11q0 -20 -7.5 -32t-16.5 -22.5t-16.5 -21.5t-7.5 -28q0 -23 19 -23q16 0 16 22v8h38v-8q0 -47 -54 -47q-57 0 -57 53q0 18 7.5 30.5t16.5 23t16.5 21.5t7.5 26v9z" />
<glyph unicode="&#x119;" d="M112 393h78v142q0 44 -40 44q-38 0 -38 -44v-142zM112 124q0 -45 38 -45q40 0 40 45v127h76v-95q0 -156 -116 -156q-115 0 -115 156v346q0 157 115 157q116 0 116 -157v-187h-154v-191zM83 7h38v-11q0 -20 -7.5 -32t-16.5 -22.5t-16.5 -21.5t-7.5 -28q0 -23 19 -23 q16 0 16 22v8h38v-8q0 -47 -54 -47q-57 0 -57 53q0 18 7.5 30.5t16.5 23t16.5 21.5t7.5 26v9z" />
<glyph unicode="&#x131;" horiz-adv-x="156" d="M119 0h-77v659h77v-659z" />
<glyph unicode="&#x141;" horiz-adv-x="273" d="M261 89v-89h-226v485l-47 -28l-22 38l69 40v352h89v-300l58 33l22 -38l-80 -46v-447h137z" />
<glyph unicode="&#x142;" horiz-adv-x="129" d="M189 590l-87 -50v-540h-76v496l-66 -38l-22 38l88 50v341h76v-297l64 38z" />
<glyph unicode="&#x143;" horiz-adv-x="366" d="M131 521l-16 119v-640h-80v887h107l91 -505l18 -135v640h79v-887h-106zM277 984l-104 -57h-46l53 57h97z" />
<glyph unicode="&#x144;" d="M190 535q0 44 -39 44t-39 -44v-535h-77v659h77v-27q13 27 63 27q91 0 91 -157v-502h-76v535zM240 755l-104 -57h-46l53 57h97z" />
<glyph unicode="&#x152;" horiz-adv-x="437" d="M213 747q0 52 -44 52q-45 0 -45 -52v-607q0 -51 45 -51q44 0 44 51v607zM416 89v-89h-203v22q-19 -22 -61 -22q-117 0 -117 195v497q0 195 115 195q43 0 63 -23v23h203v-88h-114v-302h55v-89h-55v-319h114z" />
<glyph unicode="&#x153;" horiz-adv-x="431" d="M334 393v142q0 44 -40 44q-38 0 -38 -44v-142h78zM180 535q0 44 -40 44q-38 0 -38 -44v-411q0 -45 38 -45q40 0 40 45v411zM256 124q0 -45 38 -45q40 0 40 45v127h76v-95q0 -156 -116 -156q-49 0 -77 39q-29 -39 -77 -39q-114 0 -114 156v346q0 157 114 157q49 0 77 -40 q28 40 77 40q116 0 116 -157v-187h-154v-191z" />
<glyph unicode="&#x15a;" horiz-adv-x="324" d="M200 747q0 52 -38 52t-38 -52v-120q0 -58 82 -167q82 -107 82 -187v-78q0 -195 -126 -195q-127 0 -127 195v110h89v-165q0 -51 38 -51t38 51v102q0 80 -83 187q-82 106 -82 206v57q0 195 127 195q126 0 126 -195v-81h-88v136zM267 984l-104 -57h-46l53 57h97z" />
<glyph unicode="&#x15b;" horiz-adv-x="272" d="M165 538q0 45 -31 45t-31 -45v-61q0 -50 71 -139q72 -90 72 -173q0 -165 -110 -165q-108 0 -108 169v28h75v-76q0 -46 33 -46q34 0 34 46v61q0 54 -71 131t-71 178q0 168 106 168q108 0 108 -168v-56h-77v103zM229 755l-104 -57h-46l53 57h97z" />
<glyph unicode="&#x162;" horiz-adv-x="273" d="M3 887h266v-88h-88v-799h-89v799h-89v88zM158 -2q0 -15 7.5 -25.5t16.5 -21t16.5 -23t7.5 -31.5q0 -53 -57 -53q-54 0 -54 49v6h39q-1 -3 -1 -10q0 -20 16 -20q19 0 19 23q0 17 -7.5 28.5t-16.5 22t-16.5 22.5t-7.5 31v11h38v-9z" />
<glyph unicode="&#x163;" horiz-adv-x="174" d="M6 659h31v228h76v-228h36v-80h-36v-455q0 -44 41 -44v-80q-117 0 -117 156v423h-31v80zM122 -2q0 -15 7.5 -25.5t16.5 -21t16.5 -23t7.5 -31.5q0 -53 -57 -53q-54 0 -54 49v6h39q-1 -3 -1 -10q0 -20 16 -20q19 0 19 23q0 17 -7.5 28.5t-16.5 22t-16.5 22.5t-7.5 31v11h38 v-9z" />
<glyph unicode="&#x178;" horiz-adv-x="322" d="M116 0v379l-116 508h91l53 -274l17 -119l16 119l53 274h92l-117 -508v-379h-89zM56 984h53v-57h-53v57zM206 927v57h55v-57h-55z" />
<glyph unicode="&#x179;" horiz-adv-x="298" d="M26 887h256v-108l-177 -690h177v-89h-265v100l184 699h-175v88zM244 984l-104 -57h-46l53 57h97z" />
<glyph unicode="&#x17a;" horiz-adv-x="268" d="M34 659h203v-94l-131 -486h130v-79h-205v87l136 492h-133v80zM246 755l-104 -57h-46l53 57h97z" />
<glyph unicode="&#x17b;" horiz-adv-x="298" d="M26 887h256v-108l-177 -690h177v-89h-265v100l184 699h-175v88zM118 984h60v-57h-60v57z" />
<glyph unicode="&#x17c;" horiz-adv-x="268" d="M34 659h203v-94l-131 -486h130v-79h-205v87l136 492h-133v80zM104 755h60v-57h-60v57z" />
<glyph unicode="&#x192;" horiz-adv-x="384" d="M-20 -77q23 0 40 15t25 44l160 597h-25l21 80h25l19 72q40 156 148 156v-80q-52 0 -63 -44l-27 -104h26l-21 -80h-26l-156 -579q-45 -156 -146 -156v79z" />
<glyph unicode="&#x218;" horiz-adv-x="324" d="M200 747q0 52 -38 52t-38 -52v-120q0 -58 82 -167q82 -107 82 -187v-78q0 -195 -126 -195q-127 0 -127 195v110h89v-165q0 -51 38 -51t38 51v102q0 80 -83 187q-82 106 -82 206v57q0 195 127 195q126 0 126 -195v-81h-88v136zM173 -2q0 -15 7.5 -25.5t16.5 -21t16.5 -23 t7.5 -31.5q0 -53 -57 -53q-54 0 -54 49v6h39q-1 -3 -1 -10q0 -20 16 -20q19 0 19 23q0 17 -7.5 28.5t-16.5 22t-16.5 22.5t-7.5 31v11h38v-9z" />
<glyph unicode="&#x219;" horiz-adv-x="272" d="M165 538q0 45 -31 45t-31 -45v-61q0 -50 71 -139q72 -90 72 -173q0 -165 -110 -165q-108 0 -108 169v28h75v-76q0 -46 33 -46q34 0 34 46v61q0 54 -71 131t-71 178q0 168 106 168q108 0 108 -168v-56h-77v103zM151 -2q0 -15 7.5 -25.5t16.5 -21t16.5 -23t7.5 -31.5 q0 -53 -57 -53q-54 0 -54 49v6h39q-1 -3 -1 -10q0 -20 16 -20q19 0 19 23q0 17 -7.5 28.5t-16.5 22t-16.5 22.5t-7.5 31v11h38v-9z" />
<glyph unicode="&#x2c6;" horiz-adv-x="230" d="M91 984h51l80 -57h-80l-26 45l-25 -45h-81z" />
<glyph unicode="&#x2c7;" horiz-adv-x="236" d="M140 926h-51l-80 57h80l25 -45l26 45h81z" />
<glyph unicode="&#x2d8;" horiz-adv-x="236" d="M221 984q-26 -57 -108 -57q-94 0 -104 57h69q0 -45 36 -45q37 0 37 45h70z" />
<glyph unicode="&#x2d9;" horiz-adv-x="123" d="M35 984h60v-57h-60v57z" />
<glyph unicode="&#x2da;" horiz-adv-x="154" d="M30 959q0 -19 14 -32.5t33 -13.5q18 0 32 13.5t14 32.5t-14 33t-32 14q-19 0 -33 -14t-14 -33zM14 959q0 26 18.5 45t44.5 19q25 0 44 -19t19 -45q0 -25 -19 -43.5t-44 -18.5q-26 0 -44.5 18.5t-18.5 43.5z" />
<glyph unicode="&#x2db;" horiz-adv-x="195" d="M83 7h38v-11q0 -20 -7.5 -32t-16.5 -22.5t-16.5 -21.5t-7.5 -28q0 -23 19 -23q16 0 16 22v8h38v-8q0 -47 -54 -47q-57 0 -57 53q0 18 7.5 30.5t16.5 23t16.5 21.5t7.5 26v9z" />
<glyph unicode="&#x2dc;" horiz-adv-x="231" d="M13 927q0 25 13.5 41t36.5 16q13 0 28 -3.5t29 -7.5l26 -7q13 -4 21 -4q10 0 14.5 6.5t5.5 15.5h33q0 -29 -13.5 -43t-33.5 -14q-13 0 -27 3l-29 8q-14 3 -26.5 6.5t-21.5 3.5q-11 0 -17 -4.5t-7 -16.5h-32z" />
<glyph unicode="&#x2dd;" horiz-adv-x="265" d="M254 984l-94 -57h-49l82 57h61zM154 984l-94 -57h-49l82 57h61z" />
<glyph unicode="&#x2000;" horiz-adv-x="511" />
<glyph unicode="&#x2001;" horiz-adv-x="1023" />
<glyph unicode="&#x2002;" horiz-adv-x="511" />
<glyph unicode="&#x2003;" horiz-adv-x="1023" />
<glyph unicode="&#x2004;" horiz-adv-x="341" />
<glyph unicode="&#x2005;" horiz-adv-x="255" />
<glyph unicode="&#x2006;" horiz-adv-x="170" />
<glyph unicode="&#x2007;" horiz-adv-x="170" />
<glyph unicode="&#x2008;" horiz-adv-x="127" />
<glyph unicode="&#x2010
</p>
<p>
;" horiz-adv-x="204" />
<glyph unicode="&#x200a;" horiz-adv-x="56" />
<glyph unicode="&#x2010;" horiz-adv-x="184" d="M18 488h148v-71h-148v71z" />
<glyph unicode="&#x2011;" horiz-adv-x="184" d="M18 488h148v-71h-148v71z" />
<glyph unicode="&#x2013;" horiz-adv-x="303" d="M18 488h259v-71h-259v71z" />
<glyph unicode="&#x2014;" horiz-adv-x="486" d="M18 488h444v-71h-444v71z" />
<glyph unicode="&#x2018;" horiz-adv-x="111" d="M99 718h-80v88q0 42 16.5 61.5t49.5 19.5v-39q-35 0 -35 -38h49v-92z" />
<glyph unicode="&#x2019;" horiz-adv-x="118" d="M26 888h79v-88q0 -45 -16.5 -63t-49.5 -18v38q35 0 35 39h-48v92z" />
<glyph unicode="&#x201a;" horiz-adv-x="125" d="M20 106h80v-88q0 -42 -16.5 -61.5t-50.5 -19.5v39q36 0 36 38h-49v92z" />
<glyph unicode="&#x201c;" horiz-adv-x="232" d="M110 718h-80v88q0 42 16.5 61.5t49.5 19.5v-39q-35 0 -35 -38h49v-92zM221 718h-80v88q0 42 16.5 61.5t49.5 19.5v-39q-35 0 -35 -38h49v-92z" />
<glyph unicode="&#x201d;" horiz-adv-x="225" d="M134 888h80v-88q0 -45 -16.5 -63t-49.5 -18v38q35 0 35 39h-49v92zM23 888h80v-88q0 -45 -16.5 -63t-49.5 -18v38q35 0 35 39h-49v92z" />
<glyph unicode="&#x201e;" horiz-adv-x="228" d="M129 106h80v-88q0 -42 -16.5 -61.5t-50.5 -19.5v39q36 0 36 38h-49v92zM20 106h80v-88q0 -42 -16.5 -61.5t-50.5 -19.5v39q36 0 36 38h-49v92z" />
<glyph unicode="&#x2020;" horiz-adv-x="286" d="M21 791l88 -17l-18 87h100l-17 -87l88 18v-100l-88 17l17 -671h-99l17 671l-88 -17v99z" />
<glyph unicode="&#x2021;" horiz-adv-x="286" d="M261 96l-88 17l18 -86h-100l17 86l-88 -18v100l89 -16v530l-88 -17v99l88 -17l-18 87h100l-17 -87l88 18v-100l-89 17v-530l88 16v-99z" />
<glyph unicode="&#x2022;" horiz-adv-x="507" d="M20 363q0 48 18.5 91t50.5 75t74.5 50.5t91.5 18.5t91.5 -18.5t74.5 -50.5t50.5 -75t18.5 -91q0 -50 -18.5 -92.5t-50.5 -74.5t-74.5 -50t-91.5 -18t-91.5 18t-74.5 50t-50.5 74.5t-18.5 92.5z" />
<glyph unicode="&#x2026;" horiz-adv-x="922" d="M156 106h80v-106h-80v106zM418 106h80v-106h-80v106zM680 106h80v-106h-80v106z" />
<glyph unicode="&#x202f;" horiz-adv-x="204" />
<glyph unicode="&#x2039;" horiz-adv-x="391" d="M324 39h-79l-173 247l173 246h80l-142 -246z" />
<glyph unicode="&#x203a;" horiz-adv-x="401" d="M75 532h82l170 -246l-170 -247h-82l145 247z" />
<glyph unicode="&#x205f;" horiz-adv-x="255" />
<glyph unicode="&#x20ac;" horiz-adv-x="333" d="M213 305h84v-110q0 -195 -128 -195q-134 0 -134 195v497q0 195 134 195q128 0 128 -195v-81h-84v136q0 52 -44 52q-45 0 -45 -52v-607q0 -51 45 -51q44 0 44 51v165zM8.45508 513.484h285.365v-41.6562h-285.365v41.6562zM8.45508 412.031h285.365v-41.6562h-285.365 v41.6562z" />
<glyph unicode="&#x2122;" horiz-adv-x="535" d="M33 887h184v-70h-64v-275h-68v275h-52v70zM247 542v345h71l44 -293l44 293h73v-345h-52v247l-38 -247h-55l-36 240v-240h-51z" />
<glyph unicode="&#xfb01;" horiz-adv-x="284" d="M258 0h-76v579h-76v-579h-76v579h-26v80h26v72q0 156 127 156h101v-80h-101q-51 0 -51 -44v-104h152v-659z" />
<glyph unicode="&#xfb02;" horiz-adv-x="284" d="M182 659v148h-25q-51 0 -51 -44v-104h76zM258 0h-76v579h-76v-579h-76v579h-26v80h26v72q0 156 127 156h101v-887z" />
</font>
</defs>
</svg>
